<?xml version="1.0" standalone="no"?>
<!DOCTYPE svg PUBLIC "-//W3C//DTD SVG 1.1//EN" "http://www.w3.org/Graphics/SVG/1.1/DTD/svg11.dtd" >
<svg xmlns="http://www.w3.org/2000/svg">
<metadata>Generated by IcoMoon</metadata>
<defs>
<font id="icomoon" horiz-adv-x="1024">
<font-face units-per-em="1024" ascent="960" descent="-64" />
<missing-glyph horiz-adv-x="1024" />
<glyph unicode="&#x20;" horiz-adv-x="0" d="" />
<glyph unicode="&#x68;" glyph-name="insta" d="M680 451.143c0-92-76-168-168-168s-168 76-168 168c0 92 76 166 168 166s168-74 168-166zM770 451.143c0 142-116 258-258 258s-258-116-258-258c0-142 116-258 258-258s258 116 258 258zM840 719.143c0 32-26 60-60 60s-60-28-60-60c0-34 26-60 60-60s60 26 60 60zM512 863.143c74 0 230 6 296-22 22-8 40-20 58-36 16-18 28-36 38-58 26-66 20-224 20-296 0-74 6-230-20-296-10-22-22-40-38-58-18-18-36-28-58-38-66-26-222-20-296-20s-230-6-296 20c-22 10-40 20-58 38-16 18-28 36-38 58-26 66-20 222-20 296 0 72-6 230 20 296 10 22 22 40 38 58 18 16 36 28 58 36 66 28 222 22 296 22zM1014 451.143c0 68 0 138-4 206-4 82-22 152-80 212-60 58-130 76-210 80-70 4-138 4-208 4s-138 0-208-4c-80-4-150-22-210-80-58-60-76-130-80-212-4-68-4-138-4-206 0-70 0-138 4-208 4-80 22-150 80-210 60-58 130-76 210-80 70-4 138-4 208-4s138 0 208 4c80 4 150 22 210 80 58 60 76 130 80 210 4 70 4 138 4 208z" />
<glyph unicode="&#x6f;" glyph-name="close" d="M512 577.143l378 378 120-120-378-378 378-378-120-120-378 378-378-378-120 120 378 378-378 378 120 120z" />
<glyph unicode="&#xe900;" glyph-name="x" d="M778.411 873.143h141.141l-308.352-352.427 362.752-479.573h-284.032l-222.464 290.859-254.549-290.859h-141.227l329.813 376.96-347.989 455.040h291.243l201.088-265.856zM728.875 125.623h78.208l-504.832 667.477h-83.925z" />
<glyph unicode="&#xe901;" glyph-name="menu" d="M128 393.143h768c23.552 0 42.667 19.115 42.667 42.667s-19.115 42.667-42.667 42.667h-768c-23.552 0-42.667-19.115-42.667-42.667s19.115-42.667 42.667-42.667zM128 649.143h768c23.552 0 42.667 19.115 42.667 42.667s-19.115 42.667-42.667 42.667h-768c-23.552 0-42.667-19.115-42.667-42.667s19.115-42.667 42.667-42.667zM128 137.143h768c23.552 0 42.667 19.115 42.667 42.667s-19.115 42.667-42.667 42.667h-768c-23.552 0-42.667-19.115-42.667-42.667s19.115-42.667 42.667-42.667z" />
<glyph unicode="&#xe902;" glyph-name="shopping-cart" d="M469.333 51.81c0 23.552-9.6 44.928-25.003 60.331s-36.779 25.003-60.331 25.003-44.928-9.6-60.331-25.003-25.003-36.779-25.003-60.331 9.6-44.928 25.003-60.331 36.779-25.003 60.331-25.003 44.928 9.6 60.331 25.003 25.003 36.779 25.003 60.331zM938.667 51.81c0 23.552-9.6 44.928-25.003 60.331s-36.779 25.003-60.331 25.003-44.928-9.6-60.331-25.003-25.003-36.779-25.003-60.331 9.6-44.928 25.003-60.331 36.779-25.003 60.331-25.003 44.928 9.6 60.331 25.003 25.003 36.779 25.003 60.331zM308.096 649.143h621.653l-58.496-306.816c-1.963-9.728-7.083-18.133-14.165-24.235-7.68-6.656-17.621-10.496-29.355-10.283h-415.317c-9.899-0.128-19.243 3.029-26.709 8.661-8.107 6.101-14.037 14.976-16.171 25.728zM42.667 862.477h135.68l36.181-180.864c4.608-18.645 21.419-32.469 41.472-32.469h52.096l-17.067 85.333h-35.029c-23.552 0-42.667-19.115-42.667-42.667 0-2.261 0.171-4.48 0.512-6.613 0.171-1.195 0.427-2.432 0.725-3.584l71.296-356.139c6.357-32.043 24.32-59.008 48.64-77.269 22.229-16.725 49.92-26.155 79.104-25.728h414.123c31.915-0.64 62.080 11.136 85.12 31.019 21.077 18.176 36.181 43.221 42.027 71.808l68.352 358.485c4.395 23.168-10.752 45.483-33.92 49.92-2.773 0.555-5.547 0.811-7.979 0.768h-690.347l-35.84 179.029c-4.011 19.712-21.205 34.304-41.813 34.304h-170.667c-23.552 0-42.667-19.115-42.667-42.667s19.115-42.667 42.667-42.667z" />
<glyph unicode="&#xe903;" glyph-name="chevron-right" horiz-adv-x="695" d="M632.571 458.857l-424-424c-14.286-14.286-37.143-14.286-51.429 0l-94.857 94.857c-14.286 14.286-14.286 37.143 0 51.429l303.429 303.429-303.429 303.429c-14.286 14.286-14.286 37.143 0 51.429l94.857 94.857c14.286 14.286 37.143 14.286 51.429 0l424-424c14.286-14.286 14.286-37.143 0-51.429z" />
<glyph unicode="&#xe904;" glyph-name="chevron-left" horiz-adv-x="768" d="M669.143 788l-303.429-303.429 303.429-303.429c14.286-14.286 14.286-37.143 0-51.429l-94.857-94.857c-14.286-14.286-37.143-14.286-51.429 0l-424 424c-14.286 14.286-14.286 37.143 0 51.429l424 424c14.286 14.286 37.143 14.286 51.429 0l94.857-94.857c14.286-14.286 14.286-37.143 0-51.429z" />
<glyph unicode="&#xe905;" glyph-name="chevron-down" d="M961.714 498.286l-424-423.429c-14.286-14.286-37.143-14.286-51.429 0l-424 423.429c-14.286 14.286-14.286 37.714 0 52l94.857 94.286c14.286 14.286 37.143 14.286 51.429 0l303.429-303.429 303.429 303.429c14.286 14.286 37.143 14.286 51.429 0l94.857-94.286c14.286-14.286 14.286-37.714 0-52z" />
<glyph unicode="&#xe906;" glyph-name="chevron-up" d="M961.714 199.429l-94.857-94.286c-14.286-14.286-37.143-14.286-51.429 0l-303.429 303.429-303.429-303.429c-14.286-14.286-37.143-14.286-51.429 0l-94.857 94.286c-14.286 14.286-14.286 37.714 0 52l424 423.429c14.286 14.286 37.143 14.286 51.429 0l424-423.429c14.286-14.286 14.286-37.714 0-52z" />
<glyph unicode="&#xe907;" glyph-name="heart-o" d="M950.857 610.286c0 160.571-108.571 194.286-200 194.286-85.143 0-181.143-92-210.857-127.429-13.714-16.571-42.286-16.571-56 0-29.714 35.429-125.714 127.429-210.857 127.429-91.429 0-200-33.714-200-194.286 0-104.571 105.714-201.714 106.857-202.857l332-320 331.429 319.429c1.714 1.714 107.429 98.857 107.429 203.429zM1024 610.286c0-137.143-125.714-252-130.857-257.143l-356-342.857c-6.857-6.857-16-10.286-25.143-10.286s-18.286 3.429-25.143 10.286l-356.571 344c-4.571 4-130.286 118.857-130.286 256 0 167.429 102.286 267.429 273.143 267.429 100 0 193.714-78.857 238.857-123.429 45.143 44.571 138.857 123.429 238.857 123.429 170.857 0 273.143-100 273.143-267.429z" />
<glyph unicode="&#xe908;" glyph-name="heart" d="M512 0c-9.143 0-18.286 3.429-25.143 10.286l-356.571 344c-4.571 4-130.286 118.857-130.286 256 0 167.429 102.286 267.429 273.143 267.429 100 0 193.714-78.857 238.857-123.429 45.143 44.571 138.857 123.429 238.857 123.429 170.857 0 273.143-100 273.143-267.429 0-137.143-125.714-252-130.857-257.143l-356-342.857c-6.857-6.857-16-10.286-25.143-10.286z" />
<glyph unicode="&#xe909;" glyph-name="whatsapp" horiz-adv-x="878" d="M562.857 394.286c9.714 0 102.857-48.571 106.857-55.429 1.143-2.857 1.143-6.286 1.143-8.571 0-14.286-4.571-30.286-9.714-43.429-13.143-32-66.286-52.571-98.857-52.571-27.429 0-84 24-108.571 35.429-81.714 37.143-132.571 100.571-181.714 173.143-21.714 32-41.143 71.429-40.571 110.857v4.571c1.143 37.714 14.857 64.571 42.286 90.286 8.571 8 17.714 12.571 29.714 12.571 6.857 0 13.714-1.714 21.143-1.714 15.429 0 18.286-4.571 24-19.429 4-9.714 33.143-87.429 33.143-93.143 0-21.714-39.429-46.286-39.429-59.429 0-2.857 1.143-5.714 2.857-8.571 12.571-26.857 36.571-57.714 58.286-78.286 26.286-25.143 54.286-41.714 86.286-57.714 4-2.286 8-4 12.571-4 17.143 0 45.714 55.429 60.571 55.429zM446.857 91.428c197.714 0 358.857 161.143 358.857 358.857s-161.143 358.857-358.857 358.857-358.857-161.143-358.857-358.857c0-75.429 24-149.143 68.571-210.286l-45.143-133.143 138.286 44c58.286-38.286 127.429-59.429 197.143-59.429zM446.857 881.143c237.714 0 430.857-193.143 430.857-430.857s-193.143-430.857-430.857-430.857c-72.571 0-144.571 18.286-208.571 53.714l-238.286-76.571 77.714 231.429c-40.571 66.857-61.714 144-61.714 222.286 0 237.714 193.143 430.857 430.857 430.857z" />
<glyph unicode="&#xe90a;" glyph-name="basket" horiz-adv-x="922" d="M443.864 857.6c27.158 0 53.204-10.788 72.406-29.992 19.205-19.204 29.993-45.25 29.993-72.408v-51.2h-204.799v51.2c0 27.158 10.789 53.204 29.992 72.408s45.25 29.992 72.408 29.992zM648.663 704v51.2c0 54.317-21.576 106.408-59.986 144.816-38.405 38.407-90.497 59.984-144.813 59.984s-106.408-21.577-144.816-59.984c-38.407-38.408-59.984-90.499-59.984-144.816v-51.2h-85.447zM239.064 601.6h-85.453c-7.382 0.001-14.683-1.595-21.391-4.677s-12.669-7.579-17.477-13.181c-4.808-5.602-8.347-12.178-10.374-19.276-2.028-7.096-2.497-14.547-1.376-21.842v0l64.256-417.378c3.718-24.177 15.968-46.234 34.531-62.162 18.563-15.923 42.213-24.684 66.673-24.684v0h350.821c24.468-0.005 48.143 8.745 66.714 24.673s30.822 37.98 34.54 62.162l64.256 417.382c1.121 7.294 0.655 14.752-1.372 21.848-2.028 7.098-5.565 13.674-10.373 19.276s-10.772 10.099-17.48 13.181c-6.707 3.082-14.003 4.678-21.386 4.677h-85.509v-102.4c0-28.277-22.922-51.2-51.2-51.2s-51.2 22.923-51.2 51.2v102.4h-204.799v-102.4c0-28.277-22.923-51.2-51.2-51.2s-51.2 22.923-51.2 51.2v102.4zM648.663 704h85.499c22.144 0.002 44.032-4.785 64.154-14.031 20.127-9.248 38.011-22.737 52.434-39.544s25.037-36.535 31.119-57.829c6.088-21.295 7.491-43.653 4.127-65.542l-64.256-417.382c-7.439-48.358-31.949-92.467-69.084-124.324-37.14-31.852-84.454-49.357-133.381-49.347v0h-350.821c-48.92 0-96.225 17.516-133.352 49.372-37.125 31.852-61.622 75.94-69.059 124.288v0l-64.256 417.384c-3.366 21.89-1.961 44.256 4.123 65.55s16.701 41.022 31.122 57.829c14.422 16.807 32.308 30.297 52.431 39.544s42.011 14.033 64.155 14.031z" />
<glyph unicode="&#xe90b;" glyph-name="eye" horiz-adv-x="1112" d="M211.883 569.739c-54.686 73.096-109.306 146.097-165.654 221.414l70.646 53.149 166.936-221.955c28.14 14.099 53.784 29.784 81.432 40.114 36.694 13.708 74.594 24.655 112.684 33.893 16.369 3.968 21.744 9.466 21.524 26.251-0.901 69.393-0.38 138.795-0.38 208.198 0 8.545 0 17.089 0 28.929 26.925 0 51.952 1.035 76.733-0.959 4.424-0.361 11.097-13.263 11.182-20.45 0.854-68.605 1.463-137.238 0-205.815-0.503-23.489 3.818-34.179 30.278-37.749 58.409-7.89 112.374-30.941 162.275-62.035 16.366-10.196 24.921-8.906 36.276 6.58 49.816 67.959 100.753 135.092 153.12 204.96 23.575-17.621 45.925-34.34 70.893-53.006-55.864-74.738-110.785-148.203-157.839-211.15 27.894-33.602 52.958-64.029 78.298-94.249 38.432-45.837 77.321-91.297 115.44-137.4 13.567-16.416 14.772-35.65 1.87-52.56-79.199-103.705-164.059-202.053-275.111-273.592-103.781-66.85-215.859-99.109-339.787-74.936-96.914 18.912-178.793 67.844-253.73 129.954-74.52 61.771-136.212 135.417-195.484 211.313-18.371 23.526-17.944 41.519 1.12 65.843 57.952 73.901 117.708 146.096 190.433 206.354 2.317 1.919 3.779 4.854 6.845 8.906zM518.042 28.552c89.281-0.085 158.799 20.509 220.262 57.953 94.363 57.496 168.749 136.289 236.082 222.354 4.035 5.155 3.894 19.035-0.19 24.257-60.922 77.844-127.476 150.197-210.341 205.616-134.94 90.25-272.937 101.929-415.217 16.565-95.559-57.335-170.088-136.809-237.705-223.53-3.931-5.041-1.709-19.775 2.991-25.881 54.962-71.443 116.484-136.695 189.483-190.11 70.741-51.762 148.243-86.197 214.636-87.224zM684.904 321.516c0.275-78.81-63.734-142.866-142.526-142.649-77.689 0.219-141.198 63.669-141.461 141.35-0.266 78.83 63.705 142.86 142.514 142.64 77.692-0.219 141.198-63.658 141.473-141.341z" />
<glyph unicode="&#xe90c;" glyph-name="language" d="M512-64.001c-69.976 0-136.107 13.451-198.4 40.345s-116.685 63.59-163.175 110.080c-46.489 46.489-83.183 100.879-110.080 163.175s-40.345 128.425-40.345 198.4c0 70.825 13.448 137.165 40.345 199.014s63.59 116.037 110.080 162.561c46.489 46.524 100.881 83.217 163.175 110.080s128.425 40.312 198.4 40.345c70.825 0 137.181-13.448 199.066-40.345s116.056-63.59 162.509-110.080c46.453-46.489 83.149-100.677 110.080-162.561s40.381-128.22 40.345-199.014c0-69.976-13.451-136.105-40.345-198.4s-63.59-116.7-110.080-163.225c-46.489-46.525-100.674-83.215-162.561-110.080s-128.22-40.295-199.014-40.295zM512 40.959c22.184 30.72 41.384 62.72 57.6 96s29.44 68.695 39.68 106.24h-194.56c10.24-37.544 23.465-72.96 39.68-106.24s35.416-65.28 57.6-96zM378.88 61.44c-15.36 28.16-28.792 57.395-40.295 87.706s-21.112 61.66-28.825 94.055h-151.041c24.746-42.665 55.688-79.785 92.826-111.36s79.582-55.040 127.335-70.4zM645.12 61.44c47.785 15.36 90.251 38.825 127.386 70.4s68.060 68.695 92.775 111.36h-151.041c-7.68-32.425-17.269-63.796-28.775-94.105s-24.949-59.531-40.345-87.654zM115.199 345.6h174.081c-2.56 17.065-4.471 33.91-5.735 50.534s-1.912 33.91-1.945 51.865c-0.035 17.956 0.614 35.226 1.945 51.815s3.242 33.449 5.735 50.586h-174.081c-4.266-17.065-7.458-33.93-9.575-50.586s-3.191-33.93-3.226-51.815c-0.035-17.884 1.040-35.174 3.226-51.865s5.376-33.536 9.575-50.534zM391.679 345.6h240.64c2.56 17.065 4.49 33.91 5.785 50.534s1.931 33.91 1.895 51.865c-0.036 17.956-0.68 35.226-1.945 51.815s-3.174 33.449-5.735 50.586h-240.64c-2.56-17.065-4.471-33.93-5.735-50.586s-1.912-33.93-1.945-51.815c-0.035-17.884 0.614-35.174 1.945-51.865s3.242-33.536 5.735-50.534zM734.72 345.6h174.081c4.265 17.065 7.475 33.91 9.625 50.534s3.21 33.91 3.174 51.865c-0.036 17.956-1.091 35.226-3.174 51.815s-5.288 33.449-9.625 50.586h-174.081c2.56-17.065 4.49-33.93 5.785-50.586s1.931-33.93 1.895-51.815c-0.036-17.884-0.68-35.174-1.945-51.865s-3.174-33.536-5.735-50.534zM714.24 652.801h151.041c-24.745 42.666-55.669 79.787-92.775 111.36s-79.565 55.040-127.386 70.4c15.36-28.16 28.811-57.395 40.345-87.706s21.131-61.662 28.775-94.055zM414.719 652.801h194.56c-10.24 37.547-23.465 72.96-39.68 106.24s-35.416 65.28-57.6 96c-22.184-30.72-41.384-62.72-57.6-96s-29.44-68.694-39.68-106.24zM158.72 652.801h151.041c7.68 32.426 17.288 63.796 28.825 94.105s24.968 59.528 40.295 87.654c-47.786-15.36-90.249-38.826-127.386-70.4s-68.062-68.694-92.775-111.36z" />
<glyph unicode="&#xe90d;" glyph-name="search" d="M285.234 924.828c56.059 23.22 116.141 35.172 176.821 35.172s120.763-11.951 176.819-35.172c56.060-23.22 106.997-57.255 149.903-100.161s76.939-93.842 100.162-149.901c23.219-56.059 35.171-116.141 35.171-176.821s-11.952-120.763-35.171-176.819c-15.21-36.725-35.061-71.248-59.008-102.755l175.781-175.784c24.386-24.382 24.386-63.916 0-88.298-24.382-24.386-63.916-24.386-88.298 0l-175.784 175.781c-79.938-60.756-178.033-94.179-279.574-94.179-122.544 0-240.070 48.68-326.722 135.333s-135.333 204.178-135.333 326.722c0 122.544 48.681 240.070 135.333 326.722 42.906 42.906 93.842 76.94 149.901 100.161zM462.054 835.123c-44.277 0-88.123-8.721-129.032-25.666-40.908-16.945-78.078-41.781-109.388-73.091-63.233-63.233-98.757-148.996-98.757-238.42s35.524-175.188 98.757-238.42c63.233-63.232 148.996-98.757 238.42-98.757s175.188 35.525 238.42 98.757c31.309 31.309 56.148 68.48 73.092 109.389s25.666 84.754 25.666 129.031c0 44.277-8.722 88.123-25.666 129.032s-41.783 78.078-73.092 109.388-68.48 56.146-109.389 73.091c-40.909 16.945-84.754 25.666-129.031 25.666z" />
<glyph unicode="&#xe90e;" glyph-name="user" d="M512 960c67.897 0 133.012-26.971 181.020-74.981s74.98-113.124 74.98-181.019c0-67.895-26.971-133.010-74.98-181.019s-113.124-74.981-181.020-74.981c-67.895 0-133.010 26.972-181.019 74.981s-74.981 113.124-74.981 181.019c0 67.895 26.972 133.010 74.981 181.019s113.124 74.981 181.019 74.981zM512 832c-33.948 0-66.505-13.486-90.51-37.49s-37.49-56.562-37.49-90.51c0-33.948 13.486-66.505 37.49-90.51s56.562-37.49 90.51-37.49c33.948 0 66.503 13.486 90.51 37.49 24.001 24.005 37.49 56.562 37.49 90.51s-13.488 66.505-37.49 90.51c-24.007 24.005-56.562 37.49-90.51 37.49zM512 384c170.883 0 512-85.117 512-256v-192h-1024v192c0 170.883 341.12 256 512 256zM512 262.4c-190.080 0-390.4-93.44-390.4-134.4v-70.4h780.8v70.4c0 40.96-200.317 134.4-390.4 134.4z" />
<glyph unicode="&#xe90f;" glyph-name="boulevard-audiodescriptie" horiz-adv-x="1317" d="M146.286 960c-80.686 0-146.286-65.6-146.286-146.286v-731.429c0-80.686 65.6-146.286 146.286-146.286h1024c80.686 0 146.286 65.6 146.286 146.286v731.429c0 80.686-65.6 146.286-146.286 146.286h-1024zM488 637.029l164.571-329.143c13.486-27.2 2.514-60.114-24.457-73.6s-60.114-2.514-73.6 24.457l-21.486 43.2h-188.114l-21.486-43.2c-13.486-27.2-46.4-38.171-73.6-24.457s-38.171 46.4-24.457 73.6l164.571 329.143c9.371 18.514 28.343 30.4 49.143 30.4s39.771-11.657 49.143-30.4h-0.229zM487.086 393.371l-48.229 96.457-48.229-96.457h96.457zM694.857 612.571c0 30.4 24.457 54.857 54.857 54.857h128c121.143 0 219.429-98.286 219.429-219.429s-98.286-219.429-219.429-219.429h-128c-30.4 0-54.857 24.457-54.857 54.857v329.143zM804.571 557.714v-219.429h73.143c60.571 0 109.714 49.143 109.714 109.714s-49.143 109.714-109.714 109.714h-73.143z" />
<glyph unicode="&#xe910;" glyph-name="boulevard-blinden-4" horiz-adv-x="1280" d="M978.6 774.4c-88.6 69-202.2 121.6-338.6 121.6-161.6 0-291-73.6-385-161.2-93.6-86.8-156.2-190.8-186-262.2-6.6-15.8-6.6-33.4 0-49.2 27-64.6 80.6-155.6 159.8-236.8l-210.4-164.8c-20.8-16.4-24.6-46.6-8.2-67.4s46.6-24.6 67.4-8.2l1184 928c20.8 16.4 24.6 46.6 8.2 67.4s-46.6 24.6-67.4 8.2l-223.8-175.4zM833.6 660.8l-180.6-141.6c-8.4 17-13.2 36.2-13.2 56.6 0 14.2 2.4 27.8 6.6 40.6 3.6 11.2-3.2 23.8-14.8 23.4-81.6-3.4-155-59.2-177.2-142.2-11.6-43.8-7.2-88 9.6-126.6l-77.2-60.4c-22.2 40.8-34.8 87.6-34.8 137.4 0 159 129 288 288 288 74.6 0 142.8-28.4 193.8-75l-0.2-0.2zM387.6 65c72.6-39.2 156.8-65 252.4-65 161.6 0 291 73.6 385 161.2 93.6 86.8 156.2 190.8 186 262.2 6.6 15.8 6.6 33.4 0 49.2-19 45.8-51.6 105-97.2 164.4l-188.6-148.6c1.8-13.2 2.8-26.6 2.8-40.4 0-159-129-288-288-288-37.4 0-73.2 7.2-106 20.2l-146.4-115.2z" />
<glyph unicode="&#xe911;" glyph-name="boulevard-busje" horiz-adv-x="1152" d="M576 960c268.8 0 448-70.4 448-160v-96c35.4 0 64-28.6 64-64v-128c0-35.4-28.6-64-64-64v-320c0-35.4-28.6-64-64-64v-64c0-35.4-28.6-64-64-64h-64c-35.4 0-64 28.6-64 64v64h-384v-64c0-35.4-28.6-64-64-64h-64c-35.4 0-64 28.6-64 64v64c-35.4 0-64 28.6-64 64v320c-35.4 0-64 28.6-64 64v128c0 35.4 28.6 64 64 64v0 96c0 89.6 179.2 160 448 160zM256 640v-192c0-35.4 28.6-64 64-64h224v320h-224c-35.4 0-64-28.6-64-64zM608 384h224c35.4 0 64 28.6 64 64v192c0 35.4-28.6 64-64 64h-224v-320zM288 160c35.346 0 64 28.654 64 64s-28.654 64-64 64v0c-35.346 0-64-28.654-64-64s28.654-64 64-64v0zM864 160c35.346 0 64 28.654 64 64s-28.654 64-64 64v0c-35.346 0-64-28.654-64-64s28.654-64 64-64v0zM768 800c0 17.6-14.4 32-32 32h-320c-17.6 0-32-14.4-32-32s14.4-32 32-32h320c17.6 0 32 14.4 32 32z" />
<glyph unicode="&#xe912;" glyph-name="boulevard-doven-4" d="M1005.2 850.8l-80-80c-25-25-65.6-25-90.6 0s-25 65.6 0 90.6l80 80c25 25 65.6 25 90.6 0s25-65.6 0-90.6zM365.2 210.8l-256-256c-25-25-65.6-25-90.6 0s-25 65.6 0 90.6l256 256c25 25 65.6 25 90.6 0s25-65.6 0-90.6zM480 704c-115.2 0-210.2-87.2-222.6-199-3.8-35.2-35.6-60.4-70.6-56.6s-60.4 35.6-56.6 70.6c19.4 176 168.6 313 349.8 313 194.4 0 352-157.6 352-352 0-92-35.4-175.8-93.2-238.6-24-26-34.8-49.6-34.8-69.4v-12c0-123.8-100.2-224-224-224-35.4 0-64 28.6-64 64s28.6 64 64 64c53 0 96 43 96 96v12.2c0 65.8 34.8 119.2 68.8 156 36.8 40 59.2 93.2 59.2 151.8 0 123.8-100.2 224-224 224zM480 544c-35.4 0-64-28.6-64-64 0-26.6-21.4-48-48-48s-48 21.4-48 48c0 88.4 71.6 160 160 160s160-71.6 160-160c0-26.6-21.4-48-48-48s-48 21.4-48 48c0 35.4-28.6 64-64 64z" />
<glyph unicode="&#xe913;" glyph-name="boulevard-fiets" horiz-adv-x="1280" d="M800 768c53.019 0 96 42.981 96 96s-42.981 96-96 96v0c-53.019 0-96-42.981-96-96s42.981-96 96-96v0zM854.4 640l-123.6 97.6c-34.6 27.2-83.4 27.6-118.2 0.6l-166.2-128.4c-61.4-47.6-57-141.6 8.6-183.2l121-76.8v-221.8c0-35.4 28.6-64 64-64s64 28.6 64 64v256c0 21.4-10.6 41.4-28.4 53.2l-85.6 57 120.6 97 81.4-65.2c11.4-9 25.4-14 40-14h128c35.4 0 64 28.6 64 64s-28.6 64-64 64h-105.6zM112 192c0 79.529 64.471 144 144 144s144-64.471 144-144v0c0-79.529-64.471-144-144-144s-144 64.471-144 144v0zM512 192c0 141.385-114.615 256-256 256s-256-114.615-256-256v0c0-141.385 114.615-256 256-256s256 114.615 256 256v0zM880 192c0 79.529 64.471 144 144 144s144-64.471 144-144v0c0-79.529-64.471-144-144-144s-144 64.471-144 144v0zM1280 192c0 141.385-114.615 256-256 256s-256-114.615-256-256v0c0-141.385 114.615-256 256-256s256 114.615 256 256v0z" />
<glyph unicode="&#xe914;" glyph-name="boulevard-gebarentolk" horiz-adv-x="1280" d="M313.2 867.4c15.8 31.6 3 70-28.6 85.8s-70 3-85.8-28.6l-171.8-343.4c-17.8-35.6-27-74.8-27-114.6v-18.6c0-141.4 114.6-256 256-256h160v0.6c70.4 5.4 130.8 45.6 164.2 103.4 17.6 30.6 7.2 69.8-23.4 87.4s-69.8 7.2-87.4-23.4c-14-24-39.8-40-69.4-40-44.2 0-80 35.8-80 80s35.8 80 80 80c29.6 0 55.4-16 69.4-40 17.6-30.6 56.8-41 87.4-23.4s41 56.8 23.4 87.4c-25.6 44.2-67.2 78.2-116.8 94.2l161.6 44c34 9.2 54.2 44.4 45 78.6s-44.4 54.2-78.6 45l-201.6-55 163.2 136c27.2 22.6 30.8 63 8.2 90.2s-63 30.8-90.2 8.2l-203.8-169.8 46 92zM966.8 28.6c-15.8-31.6-3-70 28.6-85.8s70-3 85.8 28.6l171.8 343.4c17.8 35.6 27 74.8 27 114.4v18.8c0 141.4-114.6 256-256 256h-160v-0.6c-70.4-5.4-130.8-45.6-164.2-103.4-17.8-30.6-7.2-69.8 23.4-87.4s69.8-7.2 87.4 23.4c14 24 39.8 40 69.4 40 44.2 0 80-35.8 80-80s-35.8-80-80-80c-29.6 0-55.4 16-69.4 40-17.8 30.6-56.8 41-87.4 23.4s-41-56.8-23.4-87.4c25.6-44.2 67.2-78.2 116.8-94.2l-161.6-44c-34.2-9.4-54.2-44.4-45-78.6s44.4-54.2 78.6-45l201.4 55-163.2-136c-27.2-22.6-30.8-63-8.2-90.2s63-30.8 90.2-8.2l203.8 169.8-46-92z" />
<glyph unicode="&#xe915;" horiz-adv-x="1002" d="M59.729 45.265c-2.708-2.708-2.708-7.008 0-9.557l2.071-2.071v13.539l-2.071-1.911z" />
<glyph unicode="&#xe916;" horiz-adv-x="1002" d="M66.419 63.263c-2.548-2.708 4.141-3.345 6.69-5.893l30.422-28.67 19.432-28.511 33.767 34.563c-8.282 9.079-13.22 21.025-13.22 34.245v71.197z" />
<glyph unicode="&#xe917;" horiz-adv-x="1002" d="M492.648 479.298l0.478 4.619-2.708-2.548z" />
<glyph unicode="&#xe918;" horiz-adv-x="1002" d="M745.9 717.897c13.379 0 24.21-10.831 24.21-24.21 0 13.379-10.831 24.21-24.21 24.21z" />
<glyph unicode="&#xe919;" horiz-adv-x="1002" d="M745.9 717.897c-13.379 0-24.21-10.831-24.21-24.21 0 13.379 10.831 24.21 24.21 24.21z" />
<glyph unicode="&#xe91a;" horiz-adv-x="1002" d="M721.69 693.687c0-13.379 10.831-24.21 24.21-24.21-13.379 0-24.21 10.831-24.21 24.21z" />
<glyph unicode="&#xe91b;" horiz-adv-x="1002" d="M745.9 669.476c13.379 0 24.21 10.831 24.21 24.21 0-13.379-10.831-24.21-24.21-24.21z" />
<glyph unicode="&#xe91c;" horiz-adv-x="1002" d="M965.545 30.93l-235.891 235.891v-118.184l161.508-161.508 26.599-2.548 47.783 36.793c2.548 2.708 2.548 7.008 0 9.557z" />
<glyph unicode="&#xe91d;" horiz-adv-x="1002" d="M899.444-21.473c2.708-2.708-103.69 107.991-101.142 110.698l128.856-114.203-10.035-6.849c-12.105 7.805-15.609 8.123-17.68 10.353v0z" />
<glyph unicode="&#xe91e;" horiz-adv-x="1002" d="M108.15 915.721c-2.708 2.708-7.008 2.708-9.557 0l-28.352-28.352h66.419l-28.511 28.352z" />
<glyph unicode="&#xe91f;" horiz-adv-x="1002" d="M455.536 568.813l-319.034 319.034h-66.419l-20.865-20.865v-10.035l288.134-288.134z" />
<glyph unicode="&#xe920;" horiz-adv-x="1002" d="M545.21 425.303l-15.769 15.609-3.663-35.2z" />
<glyph unicode="&#xe921;" horiz-adv-x="1002" d="M756.731 680.307c0-12.667-10.269-22.936-22.936-22.936s-22.936 10.269-22.936 22.936c0 12.667 10.269 22.936 22.936 22.936s22.936-10.269 22.936-22.936z" />
<glyph unicode="&#xe922;" horiz-adv-x="1002" d="M776.959 729.047c-6.053 6.053-13.22 10.831-21.025 14.335l-192.408-192.249 67.853-38.705 191.134 191.134h-19.751l-25.803 25.485zM733.795 657.371c-12.742 0-22.936 10.353-22.936 22.936s10.353 22.936 22.936 22.936 22.936-10.353 22.936-22.936-10.194-22.936-22.936-22.936z" />
<glyph unicode="&#xe923;" horiz-adv-x="1002" d="M687.764 282.112v145.103l-89.992 51.447-53.199-53.199z" />
<glyph unicode="&#xe924;" horiz-adv-x="1002" d="M509.213 254.557c14.016 4.301 27.555 10.035 40.616 16.406v-165.49c0-25.485 20.547-46.031 46.031-46.031h46.031c25.485 0 46.031 20.547 46.031 46.031v70.082l-168.835 168.516-9.875-89.514z" />
<glyph unicode="&#xe925;" horiz-adv-x="1002" d="M434.83 243.407c11.149 0 22.299 0.796 33.13 2.071l12.742 115.955-109.902-109.902c20.388-5.256 41.89-8.123 64.030-8.123z" />
<glyph unicode="&#xe926;" horiz-adv-x="1002" d="M227.768 59.441h46.031c25.485 0 46.031 20.547 46.031 46.031v95.248l-125.989-125.989c8.282-9.397 20.547-15.291 33.926-15.291z" />
<glyph unicode="&#xe927;" horiz-adv-x="1002" d="M343.882 519.436h-113.088c-21.184 0-39.501 14.335-44.598 34.882l-5.575 22.299c-6.212 24.688-31.059 39.66-55.907 33.448-24.688-6.212-39.66-31.219-33.448-55.907l5.415-22.299c11.149-44.757 43.802-79.958 85.055-95.567v-266.95l255.96 255.96-93.815 94.133z" />
<glyph unicode="&#xe928;" horiz-adv-x="1002" d="M493.603 481.050l4.141 38.386h-47.146l42.527-42.687z" />
<glyph unicode="&#xe929;" horiz-adv-x="1002" d="M728.22 749.434h-74.861l-24.37 32.333c-6.53 8.601-16.565 13.698-27.237 13.698-16.565 0-30.9-12.105-33.608-28.511l-33.13-199.416 28.67-16.406 192.249 192.249c-8.601 3.982-17.998 6.053-27.714 6.053z" />
<glyph unicode="&#xe92a;" horiz-adv-x="1002" d="M695.887 475.476l7.327 43.802h99.549c63.552 0 114.999 51.447 114.999 114.999v34.563c0 19.113-15.45 34.563-34.563 34.563h-60.844l-190.815-191.134 64.348-36.793z" />
<glyph unicode="&#xe92b;" horiz-adv-x="1002" d="M529.441 440.275l15.131-14.813 53.199 53.199-60.207 34.404z" />
<glyph unicode="&#xe92c;" horiz-adv-x="1002" d="M437.856 425.462l-256.119-256.119v-64.030c0-11.946 4.46-22.618 11.946-30.9l125.989 125.989v70.401c16.087-8.123 33.13-14.813 50.81-19.432l109.902 109.902 2.071 19.273-44.598 44.916z" />
<glyph unicode="&#xe92d;" horiz-adv-x="1002" d="M525.937 406.827l-6.849-62.756 168.676-168.676v106.716l-143.191 143.35z" />
<glyph unicode="&#xe92e;" horiz-adv-x="1002" d="M491.055 478.661l-40.457 40.775h-106.716l93.974-93.974z" />
<glyph unicode="&#xe92f;" horiz-adv-x="1002" d="M437.856 425.462l44.757-45.076 10.512 96.363-2.071 1.911z" />
<glyph unicode="&#xe930;" horiz-adv-x="1002" d="M981.791 14.046l-235.891 235.891v-118.184l161.508-161.508 26.599-2.548 47.783 36.793c2.548 2.708 2.548 7.008 0 9.557z" />
<glyph unicode="&#xe931;" horiz-adv-x="1002" d="M415.876 607.517l-319.034 319.034h-66.419l-1.593-23.573c14.813-5.097 0 2.071 0 0v0l268.862-295.461h118.184z" />
<glyph unicode="&#xe932;" horiz-adv-x="1002" d="M986.888 885.298l-53.358-52.403c-16.724-16.406-42.846-15.609-58.455 1.752s-14.813 44.757 1.911 61.163l53.358 52.403c16.724 16.406 42.846 15.609 58.455-1.752s14.813-44.916-1.911-61.163z" />
<glyph unicode="&#xe933;" horiz-adv-x="1002" d="M937.99 836.719l-53.358-52.403c-16.724-16.406-42.846-15.609-58.455 1.752s-14.813 44.757 1.911 61.163l53.358 52.403c16.724 16.406 42.846 15.609 58.455-1.752s14.813-44.757-1.911-61.163z" />
<glyph unicode="&#xe934;" horiz-adv-x="1002" d="M122.963 0.189l-53.358-52.403c-16.724-16.406-42.846-15.609-58.455 1.752s-14.813 44.757 1.911 61.163l53.358 52.403c16.724 16.406 42.846 15.609 58.455-1.752s14.654-44.757-1.911-61.163z" />
<glyph unicode="&#xe935;" horiz-adv-x="1002" d="M82.347 943.913l52.403-53.358c16.406-16.724 15.609-42.846-1.752-58.455s-44.757-14.813-61.163 1.911l-52.403 53.358c-16.406 16.724-15.609 42.846 1.752 58.455s44.916 14.654 61.163-1.911z" />
<glyph unicode="&#xe936;" horiz-adv-x="1002" d="M937.512 58.963l52.403-53.358c16.406-16.724 15.609-42.846-1.752-58.455s-44.757-14.813-61.163 1.911l-52.403 53.358c-16.406 16.724-15.609 42.846 1.752 58.455 17.361 15.45 44.757 14.654 61.163-1.911z" />
<glyph unicode="&#xe937;" horiz-adv-x="1002" d="M856.439 760.743v0 0c0.637 0.319 19.432 15.769 30.422 25.325 0 0 3.663 5.415-55.747 39.979v0c-7.805 15.928-5.097 19.273-8.442 14.972-5.256-6.69-43.005-40.935-37.59-48.898 2.867-4.141 10.194-9.875 19.432-16.406 1.911-1.434 6.849-6.371 11.946-11.787 1.115-1.274 11.946-5.575 20.547-4.938 5.893 0.478 12.424 0 12.424 0z" />
<glyph unicode="&#xe938;" glyph-name="boulevard-geen-rolstoel" horiz-adv-x="988" d="M359.5 381.709l-1.275 8.127-150.11-145.33c10.358-20.397 27.887-39.998 48.443-52.746l50.674 50.037 20.556 20.397 61.988 65.175c-16.254 13.226-25.974 32.667-30.277 54.339zM98.799 135.191l-64.378-69.318c-2.55-2.55-2.55-6.693 0-9.242l53.861-54.021 72.027 72.505c-22.15 16.254-45.097 37.607-61.51 60.076zM699.877 618.667l267.234 267.872c2.709 2.709 10.995 24.222 8.286 26.771l-43.822 45.415c-2.709 2.709-1.594-30.755-21.035-9.083l-309.463-307.869 58.004-0.319c17.051-2.072 30.436-11.155 40.794-22.787zM967.908 61.889l-41.432 41.432c-2.55-1.434-5.259-2.55-7.968-3.506l-80.632-26.931 65.972-65.494c2.39-2.39 16.573-1.753 18.804 0.637l45.256 45.256c2.39 2.55 2.39 6.374 0 8.605zM651.434 289.603h-42.228l90.353-90.353-31.711 76.489c-3.028 8.127-7.808 13.864-16.413 13.864zM335.437 686.87l-259.745 259.745c-2.709 2.709-7.012 2.709-9.561 0l-50.993-50.993c-2.709-2.709-2.709-7.012 0-9.561l299.742-299.742-5.896 29.002c-5.737 28.683 7.649 52.746 26.453 71.549zM153.616 315.1c0 79.836 50.037 147.879 120.63 174.491 20.556 7.808 31.233 30.914 23.265 51.471-7.808 20.556-30.755 31.233-51.471 23.265-100.552-37.926-172.42-135.131-172.42-249.228 0-58.96 19.122-113.459 51.471-157.44l57.526 57.526c-18.326 28.843-29.002 63.104-29.002 99.914zM633.267 501.702c29.48 0 53.224 23.744 53.224 53.224 0 13.704-4.94 25.815-13.386 35.217l-88.6-88.6 48.762 0.159zM473.437 821.363c0-44.18-35.815-79.995-79.995-79.995s-79.995 35.815-79.995 79.995c0 44.18 35.815 79.995 79.995 79.995s79.995-35.815 79.995-79.995zM576.060 608.309h-69.637v-0.159l-3.187 16.254c-7.649 37.129-39.998 63.741-77.923 63.741-22.309 0-42.069-9.083-56.251-23.425l131.785-131.625 75.214 75.214zM923.448 198.772c-9.402 28.046-39.519 43.025-67.406 33.623l-31.233-10.358-42.388 113.3c-19.6 51.949-69.318 86.369-124.773 86.369h-46.053l286.675-286.675c22.469 12.27 33.464 38.882 25.178 63.741zM743.061 136.625c10.039-26.771 39.679-40.954 66.769-31.711l2.709 0.956-92.743 92.743 23.265-61.988zM422.444 339.64c18.644-15.298 42.388-24.381 68.044-24.381h8.446c0.637 0 1.434 0 2.072 0h102.145l-102.623 102.464-78.083-78.083zM340.218 48.662c101.826 0 190.267 57.048 235.045 141.027 10.358 19.6 3.028 43.663-16.573 54.18s-43.663 3.028-54.18-16.573c-31.392-58.801-93.221-98.639-164.611-98.639-36.81 0-71.071 10.677-99.755 28.843l-57.526-57.526c44.3-32.189 98.639-51.312 157.6-51.312zM352.807 565.602l29.958-150.27 60.395 60.076zM443.16 475.409l-60.076-60.076 2.868-14.342c4.94-24.859 18.326-46.053 36.651-61.351l78.083 78.083-57.526 57.686zM531.76 501.702h52.905l88.6 88.6c-9.721 10.995-24.062 18.007-39.998 18.007h-57.208l-75.374-75.374 31.074-31.233zM182.777 215.026l-57.526-57.526c16.254-21.991 35.536-41.432 57.686-57.526l57.526 57.526c-23.425 14.66-43.025 34.42-57.686 57.526zM898.43 135.191l-286.675 286.675h-68.203l-6.533 32.508-36.492-36.651 102.464-102.464h54.499c11.155 0 21.035-6.852 25.018-17.21l37.289-99.436 92.743-92.743 77.286 25.815c3.028 0.637 5.896 2.072 8.605 3.506zM500.686 532.935l-131.625 131.625c-17.847-18.007-27.090-44.141-21.672-71.39l5.418-27.568 90.194-90.194 57.686 57.526zM531.76 501.702l-31.074 31.233-57.526-57.526 57.526-57.686 36.332 36.651-9.242 47.328zM81.11 941.993l52.427-53.383c16.413-16.732 15.617-42.866-1.753-58.482s-44.778-14.82-61.191 1.912l-53.861 52.427c-16.413 16.732-14.182 43.822 3.187 59.439s44.778 14.66 61.191-1.912zM926.476 103.32l46.372-45.575c7.49-7.649 10.677-18.485 8.446-28.683-9.083-39.36-52.905-46.69-75.692-23.425l-38.723 39.201zM122.223 36.233l-51.63-54.021c-16.095-16.891-42.388-16.891-58.482 0s-16.095 44.3 0 61.191l51.63 54.021c16.095 16.891 42.388 16.891 58.482 0s16.095-44.3 0-61.191zM965.518 885.104l-53.542-52.268c-16.732-16.254-42.866-15.457-58.482 2.072s-14.66 44.937 2.072 61.191l53.542 52.268c16.732 16.254 42.866 15.457 58.482-2.072 15.617-17.369 14.66-44.778-2.072-61.191z" />
<glyph unicode="&#xe939;" glyph-name="boulevard-gratis" horiz-adv-x="981" d="M873.734 447.502v0c-0.995 0.995-0.995 1.99 0 2.985l89.563 84.587c12.937 12.937 19.903 26.869 20.898 42.791 1.99 18.908-2.985 36.82-14.927 51.747s-27.864 23.883-46.772 26.869l-121.407 14.927h-1.99v0.995l22.888 120.412c2.985 15.922 0 32.84-6.966 45.776-8.956 16.917-23.883 28.859-41.796 34.83s-36.82 3.981-53.738-5.971l-107.475-58.713c0 0-0.995 0-1.99 0l-53.738 112.451c-6.966 14.927-17.913 25.874-33.835 32.84-34.83 16.917-76.626 1.99-93.543-33.835l-52.742-111.456c-0.995 0-0.995 0-1.99 0l-108.47 59.708c-14.927 7.961-31.845 9.951-46.772 6.966-18.908-3.981-34.83-13.932-44.781-29.854-10.947-15.922-14.927-34.83-10.947-52.742l21.893-118.422v-2.985c0-0.995-0.995-1.99-0.995-1.99l-121.407-14.927c-16.917-1.99-31.845-9.951-42.791-21.893-25.874-27.864-24.879-73.64 2.985-99.514l87.572-82.597c0.995-0.995 0.995-1.99 0-2.985l-87.572-82.597c-11.942-10.947-20.898-25.874-21.893-42.791-2.985-17.913 1.99-37.815 13.932-52.742 10.947-15.922 27.864-25.874 46.772-27.864l122.402-15.922c0 0 0.995-0.995 0.995-0.995l-22.888-121.407c-2.985-15.922 0-32.84 7.961-46.772 18.908-33.835 61.699-46.772 95.534-27.864l107.475 58.713c0 0 0.995 0 1.99 0l52.742-110.461c10.947-24.879 35.825-40.801 63.689-40.801 26.869 0 51.747 14.927 64.684 39.806l50.752 107.475c0.995 0.995 1.99 2.985 2.985 3.981 0 0 0.995 0.995 1.99 0l107.475-58.713c13.932-7.961 31.845-10.947 46.772-7.961 18.908 3.981 34.83 13.932 44.781 29.854 10.947 15.922 14.927 34.83 10.947 52.742l-21.893 118.422v1.99c0 0.995 0.995 1.99 0.995 1.99l121.407 15.922c16.917 1.99 32.84 9.951 43.786 21.893 25.874 28.859 23.883 73.64-2.985 99.514l-89.563 84.587zM786.161 296.241c-18.908-3.981-34.83-13.932-44.781-29.854-10.947-15.922-14.927-34.83-10.947-52.742l22.888-119.417c0 0 0-0.995 0-0.995l-0.995-0.995c0-0.995-0.995-0.995-1.99-0.995l-113.446 59.708h-1.99c-15.922 6.966-33.835 6.966-50.752 0.995-17.913-5.971-31.845-18.908-39.806-36.82l-51.747-109.466c0 0 0-0.995-1.99-0.995-0.995 0-1.99 0.995-2.985 0.995l-53.738 109.466c-7.961 17.913-22.888 30.849-41.796 36.82l-1.99 0.995c-7.961 1.99-13.932 2.985-19.903 2.985s-20.898-0.995-32.84-9.951l-105.485-56.723c-0.995 0-1.99-0.995-1.99-0.995-0.995 0-0.995 0.995-0.995 1.99l21.893 120.412v5.971c1.99 17.913-2.985 35.825-14.927 50.752s-27.864 23.883-46.772 26.869l-118.422 15.922c-0.995 0-1.99 0-1.99 0.995s-0.995 1.99 0 1.99l88.568 83.592 2.985 2.985c12.937 13.932 19.903 31.845 18.908 50.752s-7.961 36.82-21.893 49.757l-87.572 82.597c0 0-0.995 0.995-0.995 1.99s0 1.99 0.995 1.99l119.417 15.922h4.976c38.81 7.961 63.689 44.781 56.723 82.597l-21.893 119.417v0.995c0 0 0 0.995 0.995 0.995h0.995l107.475-58.713c0.995-0.995 1.99-0.995 2.985-1.99l2.985-0.995h0.995c34.83-14.927 75.631 0.995 91.553 34.83l50.752 110.461c0 0.995 0.995 0.995 0.995 0.995 1.99 0 2.985 0 2.985-0.995l50.752-105.485 0.995-1.99c0.995-0.995 0.995-1.99 1.99-3.981 8.956-16.917 23.883-28.859 41.796-34.83s36.82-3.981 53.738 5.971l107.475 58.713c0 0 0.995 0 0.995 0s0.995 0 0.995-0.995c0-0.995 0-0.995 0-1.99l-21.893-119.417v-4.976c-3.981-38.81 23.883-73.64 61.699-77.621l120.412-15.922c0.995 0 1.99 0 1.99-0.995 0.995-0.995 0-1.99 0-1.99l-89.563-84.587-2.985-2.985c-25.874-28.859-23.883-73.64 2.985-99.514l87.572-82.597c0 0 0.995-0.995 0.995-1.99s-0.995-1.99-1.99-1.99l-119.417-15.922-3.981 0.995zM363.226 548.012c11.942 10.947 26.869 16.917 44.781 16.917s31.845-4.976 43.786-15.922c11.942-10.947 17.913-24.879 18.908-43.786l25.874 7.961c-2.985 22.888-11.942 41.796-28.859 55.728s-35.825 20.898-58.713 20.898c-24.879 0-45.776-7.961-62.694-24.879-16.917-15.922-25.874-37.815-25.874-63.689v-49.757l-17.913-24.879h17.913v-38.81c0-25.874 8.956-47.767 25.874-63.689s37.815-24.879 62.694-24.879c22.888 0 42.791 6.966 58.713 20.898 16.917 13.932 25.874 32.84 28.859 55.728l-25.874 7.961c-0.995-18.908-6.966-33.835-18.908-43.786-11.942-10.947-25.874-15.922-43.786-15.922s-32.84 5.971-44.781 16.917c-11.942 10.947-17.913 26.869-17.913 46.772v38.81h80.606v25.874h-80.606v49.757c0 18.908 5.971 34.83 17.913 45.776zM629.924 589.808c-24.879 0-46.772-7.961-63.689-24.879-17.913-15.922-25.874-37.815-25.874-63.689v-112.451c0-25.874 8.956-47.767 25.874-63.689 17.913-15.922 38.81-24.879 63.689-24.879s46.772 7.961 63.689 24.879c17.913 15.922 25.874 37.815 25.874 63.689v113.446c0 25.874-8.956 47.767-25.874 63.689s-37.815 23.883-63.689 23.883zM692.618 388.789c0-19.903-5.971-34.83-17.913-46.772-11.942-10.947-26.869-16.917-44.781-16.917s-32.84 5.971-44.781 16.917-17.913 26.869-17.913 46.772v113.446c0 19.903 5.971 34.83 17.913 46.772s26.869 16.917 44.781 16.917c17.913 0 32.84-5.971 44.781-16.917s17.913-26.869 17.913-46.772v-113.446z" />
<glyph unicode="&#xe93a;" glyph-name="boulevard-hulphond" d="M435.2 800.194l-17.842-17.067 183.855-196.267v-43.442c8.533 0 17.067 0 24.824 0v17.067l14.739-15.515 17.842 17.067-33.358 35.685-190.061 202.473zM658.618 561.261l130.327-138.861-4.655-31.806-143.515 153.6-1.552-1.552c-3.879 0-9.309 0-13.188 0l1.552-210.23-24.824 3.879-1.552 207.127c-110.158 0.776-260.655-3.879-359.176-6.982l-195.491 148.17 24.048-57.406 46.545-55.855 86.885-71.37-28.703-80.679-53.527-106.279-43.442-97.745 41.891-119.467h70.594l-48.873 103.176 44.994 71.37 41.115 19.394-6.982-78.352 50.424-102.4h60.509l-59.733 103.176 38.788 94.642 60.509 38.788 251.345-27.152c0.776-110.158 3.103-213.333 3.879-220.315l67.491-0.776-3.879 168.339 32.582 34.909 41.115-111.709 42.667-63.612 74.473-6.206-55.079 79.903-37.236 126.448 15.515 123.345 58.182 92.315 44.994 17.067 56.63 6.982 12.412 32.582-36.461 20.17-30.255 24.824-22.497 38.012-40.339 15.515-44.994 0.776-143.515-135.758z" />
<glyph unicode="&#xe93b;" glyph-name="boulevard-lopen" horiz-adv-x="640" d="M320 864c0 53.019 42.981 96 96 96s96-42.981 96-96v0c0-53.019-42.981-96-96-96s-96 42.981-96 96v0zM253 561.4c-2-0.8-3.8-1.6-5.8-2.4l-16-7c-32.8-14.6-58-42.4-69.4-76.4l-5.2-15.6c-11.2-33.6-47.4-51.6-81-40.4s-51.6 47.4-40.4 81l5.2 15.6c22.8 68.2 73.2 123.8 138.8 153l16 7c41.6 18.4 86.6 28 132.2 28 89.2 0 169.6-53.6 203.8-135.8l30.8-73.8 42.8-21.4c31.6-15.8 44.4-54.2 28.6-85.8s-54.2-44.4-85.8-28.6l-53.6 26.6c-20.6 10.4-36.8 27.6-45.6 49l-19.2 46-38.6-131 99-108c10.8-11.8 18.4-26 22.4-41.6l46-184.2c8.6-34.2-12.2-69-46.6-77.6s-69 12.2-77.6 46.6l-44 176.2-141.4 154.2c-29.6 32.2-40.6 77.2-29.4 119.4l33.8 127zM137.4 164l50 124.8c4.2-6 9-11.6 14-17.2l81.4-88.8-29-72.4c-4.8-12-12-23-21.2-32.2l-123.4-123.4c-25-25-65.6-25-90.6 0s-25 65.6 0 90.6l118.8 118.6z" />
<glyph unicode="&#xe93c;" glyph-name="share" d="M864 256c-45.16 0-85.92-18.738-115.012-48.83l-431.004 215.502c1.314 8.252 2.016 16.706 2.016 25.328s-0.702 17.076-2.016 25.326l431.004 215.502c29.092-30.090 69.852-48.828 115.012-48.828 88.366 0 160 71.634 160 160s-71.634 160-160 160-160-71.634-160-160c0-8.622 0.704-17.076 2.016-25.326l-431.004-215.504c-29.092 30.090-69.852 48.83-115.012 48.83-88.366 0-160-71.636-160-160 0-88.368 71.634-160 160-160 45.16 0 85.92 18.738 115.012 48.828l431.004-215.502c-1.312-8.25-2.016-16.704-2.016-25.326 0-88.368 71.634-160 160-160s160 71.632 160 160c0 88.364-71.634 160-160 160z" />
<glyph unicode="&#xe93d;" glyph-name="boulevard-ringleiding" d="M796.6 953.2c-31.6 15.8-70 3-85.8-28.6s-3-69.8 28.4-85.8l0.8-0.4c0.8-0.4 2.2-1.2 4.2-2.4 4-2.4 10-6 17.4-11.2 15-10.4 35.2-26.4 55.4-48.4 40-43.2 79-108.4 79-200.4 0-35.4 28.6-64 64-64s64 28.6 64 64c0 132-57 226.8-113 287.4-27.8 30.2-55.6 52.2-76.4 66.6-10.6 7.4-19.4 12.8-26 16.6-3.2 2-6 3.4-8 4.4-1 0.6-1.8 1-2.4 1.4l-1.2 0.6h-0.2c0 0 0 0-28.6-57.2l28.4 57.4zM257.4 505c12.4 112 107.4 199 222.6 199 123.8 0 224-100.2 224-224 0-58.6-22.4-111.8-59.2-151.8-34-36.8-68.8-90.2-68.8-156v-12.2c0-53-43-96-96-96-35.4 0-64-28.6-64-64s28.6-64 64-64c123.8 0 224 100.2 224 224v12.2c0 19.6 10.8 43.4 34.8 69.4 57.8 62.6 93.2 146.4 93.2 238.4 0 194.4-157.6 352-352 352-181.2 0-330.4-137-349.8-313-3.8-35.2 21.4-66.8 56.6-70.6s66.8 21.4 70.6 56.6zM64-64c35.346 0 64 28.654 64 64s-28.654 64-64 64v0c-35.346 0-64-28.654-64-64s28.654-64 64-64v0zM384 256c0 35.346-28.654 64-64 64s-64-28.654-64-64v0c0-35.346 28.654-64 64-64s64 28.654 64 64v0zM82.8 237.2c-25-25-25-65.6 0-90.6l128-128c25-25 65.6-25 90.6 0s25 65.6 0 90.6l-128 128c-25 25-65.6 25-90.6 0zM416 480c0 35.4 28.6 64 64 64s64-28.6 64-64c0-26.6 21.4-48 48-48s48 21.4 48 48c0 88.4-71.6 160-160 160s-160-71.6-160-160c0-26.6 21.4-48 48-48s48 21.4 48 48z" />
<glyph unicode="&#xe93e;" glyph-name="boulevard-rolstoel1" d="M384 768c53.019 0 96 42.981 96 96s-42.981 96-96 96v0c-53.019 0-96-42.981-96-96s42.981-96 96-96v0zM241 465.6c24.8 9.4 37.4 37 28 61.8s-37 37.4-61.8 28c-121-45.6-207.2-162.4-207.2-299.4 0-176.8 143.2-320 320-320 122.4 0 228.6 68.6 282.4 169.4 12.4 23.4 3.6 52.4-19.8 65s-52.4 3.6-65-19.8c-37.6-70.6-112-118.6-197.6-118.6-123.8 0-224 100.2-224 224 0 95.8 60.2 177.6 145 209.6zM519.6 608l-3.8 19.4c-9 44.6-48 76.6-93.6 76.6-60.2 0-105.4-55-93.6-114l46.2-231c12-59.8 64.4-102.8 125.6-102.8h10.2c0.8 0 1.6 0 2.6 0h188.2c13.4 0 25.2-8.2 30-20.8l72.6-193.8c12-32.2 47.6-49.2 80.2-38.2l96 32c33.6 11.2 51.6 47.4 40.4 81s-47.4 51.6-81 40.4l-37.4-12.4-51 136c-23.4 62.4-83.2 103.8-149.8 103.8h-137l-19.2 96h126.8c35.4 0 64 28.6 64 64s-28.6 64-64 64h-152.4z" />
<glyph unicode="&#xe93f;" glyph-name="boulevard-rolstoel" d="M718.352 628.752c0-34.275-27.785-62.061-62.061-62.061s-62.061 27.785-62.061 62.061c0 34.275 27.785 62.061 62.061 62.061s62.061-27.785 62.061-62.061zM972.024 187.345c-7.758 8.533-20.17 9.309-28.703 1.552l-31.030-27.152-69.818 79.127c3.103 13.188 4.655 26.376 4.655 40.339 0 15.515-1.552 30.255-5.43 44.994h12.412l34.133-118.691c3.879-12.412 14.739-20.945 27.152-20.945 2.327 0 5.43 0 7.758 0.776 15.515 4.655 24.048 20.17 19.394 35.685l-40.339 139.636c-3.879 12.412-14.739 20.945-27.152 20.945h-58.182c-31.030 48.873-83.006 83.782-143.515 89.988l1.552 2.327c13.964 15.515 12.412 39.564-3.103 53.527s-39.564 12.412-53.527-3.103l-95.418-110.933c-13.188-14.739-12.412-36.461 0-50.424l111.709-122.57c7.758-8.533 17.842-12.412 27.927-12.412 9.309 0 18.618 3.103 25.6 10.085 15.515 13.964 17.067 38.012 2.327 53.527l-88.436 96.97 7.758 8.533c13.964 5.43 29.479 8.533 45.77 8.533 69.818 0 126.448-56.63 126.448-126.448s-56.63-125.673-126.448-125.673-126.448 56.63-126.448 125.673c0 12.412 1.552 24.824 5.43 36.461l-42.667 47.321c-2.327 3.103-4.655 5.43-6.206 8.533-14.739-27.152-23.273-58.958-23.273-92.315 0-106.279 86.885-193.164 193.164-193.164 76.024 0 141.964 44.218 173.77 108.606l68.267-76.8c3.879-3.879 8.533-6.206 13.964-6.982 0.776 0 0.776 0 1.552 0 4.655 0 9.309 1.552 13.188 5.43l45.77 40.339c6.982 7.758 7.758 20.17 0 28.703zM375.467 303.709c-7.758 21.721-91.539 100.848-91.539 100.848l26.376 112.485 20.17-49.648c0 0 3.103-15.515 26.376-21.721s89.988-18.618 100.073-20.945 20.17 5.43 24.824 18.618c12.412 36.461-23.273 40.339-26.376 40.339 0 0-68.267 11.636-76.8 19.394s-60.509 131.879-60.509 131.879-38.012 58.182-103.176 13.188c0 0-84.558-51.2-96.97-63.612s-55.079-110.933-58.958-120.242c-3.879-9.309-5.43-33.358 14.739-41.115 22.497-8.533 35.685 17.842 39.564 24.048s34.133 78.352 41.115 86.109 35.685 25.6 35.685 25.6-32.582-276.945-43.442-291.685c-11.636-14.739-93.867-131.103-93.867-131.103s-15.515-24.048 2.327-42.667 41.115 0 41.115 0 105.503 134.982 113.261 144.291c7.758 9.309 6.982 18.618 9.309 36.461 2.327 18.618 17.842 69.818 17.842 69.818s70.594-50.424 78.352-72.921c7.758-23.273 0.776-162.133 0.776-162.133s-3.103-32.582 31.030-32.582c34.909 0 31.030 34.133 31.030 34.133s4.655 171.442-2.327 193.164zM366.933 750.545c0-38.56-31.259-69.818-69.818-69.818s-69.818 31.259-69.818 69.818c0 38.56 31.259 69.818 69.818 69.818s69.818-31.259 69.818-69.818z" />
<glyph unicode="&#xe940;" glyph-name="low-vision" horiz-adv-x="1152" d="M1138.6 496.8c-112.6 191.4-323 319.2-562.6 319.2-57 0-112.2-7.2-165-20.8l-105.4 144.4c-15.2 21.8-45.2 27-66.8 11.8l-26.2-18.4c-21.8-15.2-27-45.2-11.8-66.8l86.2-116.8c-108.2-52.8-206.6-138.8-273.6-252.6 0 0 0 0 0-0.2-17.6-29.8-18-67 0-97.4 77-130.6 199.4-231.8 345.8-282.6l-248.6 354.8c17.869 26.879 36.49 50.329 56.88 72.102l-0.28-0.302 320-457.2c26.697-3.825 57.527-6.008 88.868-6.008 24.281 0 48.255 1.311 71.857 3.865l-2.925-0.257-380 542.8c22.131 14.997 47.582 29.406 74.176 41.771l3.424 1.429 503.6-713c15.2-21.8 45.2-27 66.8-11.8l26.2 18.4c21.8 15.2 27 45.2 11.8 66.8l-86.2 116.8c114.4 56 209.6 144 273.6 252.6 8.359 13.931 13.302 30.738 13.302 48.7s-4.943 34.769-13.544 49.136l0.242-0.436zM780 268.2l-38.2 54.4c49.4 65.2 55.4 152.8 17.6 223.4v0c0-47.4-38.4-85.6-85.6-85.6-47.6 0-85.6 38.6-85.6 85.6 0 47.4 38.4 85.6 85.6 85.6v0c-49.6 26.4-107 31.2-159 15.4l-38.2 54.4c31 12 64.4 18.6 99.4 18.6 150.4 0 272-121.6 272-272 0-69-25.6-132-68-179.8z" />
<glyph unicode="&#xe941;" glyph-name="text-height, wysiwyg" d="M896 192h128l-160-192-160 192h128v512h-128l160 192 160-192h-128zM640 896v-256l-64 128h-192v-704h128v-64h-384v64h128v704h-192l-64-128v256z" />
<glyph unicode="&#xe942;" glyph-name="contrast" d="M512 960c-282.77 0-512-229.23-512-512s229.23-512 512-512 512 229.23 512 512-229.23 512-512 512zM128 448c0 212.078 171.922 384 384 384v-768c-212.078 0-384 171.922-384 384z" />
<glyph unicode="&#xe943;" glyph-name="linkedin, brand, social" d="M384 576h177.106v-90.782h2.532c24.64 44.194 84.958 90.782 174.842 90.782 186.946 0 221.52-116.376 221.52-267.734v-308.266h-184.61v273.278c0 65.184-1.334 149.026-96.028 149.026-96.148 0-110.82-70.986-110.82-144.292v-278.012h-184.542v576zM64 576h192v-576h-192v576zM256 736c0-53.019-42.981-96-96-96s-96 42.981-96 96c0 53.019 42.981 96 96 96s96-42.981 96-96z" />
<glyph unicode="&#xf082;" glyph-name="facebook-square" horiz-adv-x="878" d="M713.143 886.857c90.857 0 164.571-73.714 164.571-164.571v-548.571c0-90.857-73.714-164.571-164.571-164.571h-107.429v340h113.714l17.143 132.571h-130.857v84.571c0 38.286 10.286 64 65.714 64l69.714 0.571v118.286c-12 1.714-53.714 5.143-101.714 5.143-101.143 0-170.857-61.714-170.857-174.857v-97.714h-114.286v-132.571h114.286v-340h-304c-90.857 0-164.571 73.714-164.571 164.571v548.571c0 90.857 73.714 164.571 164.571 164.571h548.571z" />
<glyph unicode="&#xf16a;" glyph-name="youtube-play" d="M406.286 315.429l276.571 142.857-276.571 144.571v-287.429zM512 808c215.429 0 358.286-10.286 358.286-10.286 20-2.286 64-2.286 102.857-43.429 0 0 31.429-30.857 40.571-101.714 10.857-82.857 10.286-165.714 10.286-165.714v-77.714s0.571-82.857-10.286-165.714c-9.143-70.286-40.571-101.714-40.571-101.714-38.857-40.571-82.857-40.571-102.857-42.857 0 0-142.857-10.857-358.286-10.857v0c-266.286 2.286-348 10.286-348 10.286-22.857 4-74.286 2.857-113.143 43.429 0 0-31.429 31.429-40.571 101.714-10.857 82.857-10.286 165.714-10.286 165.714v77.714s-0.571 82.857 10.286 165.714c9.143 70.857 40.571 101.714 40.571 101.714 38.857 41.143 82.857 41.143 102.857 43.429 0 0 142.857 10.286 358.286 10.286v0z" />
<glyph unicode="&#xf175;" glyph-name="long-arrow-down" horiz-adv-x="439" d="M437.143 217.714c2.857-6.857 1.714-14.286-2.857-20l-200-219.429c-3.429-3.429-8-5.714-13.143-5.714v0c-5.143 0-10.286 2.286-13.714 5.714l-202.857 219.429c-4.571 5.714-5.714 13.143-2.857 20 2.857 6.286 9.143 10.857 16.571 10.857h128v713.143c0 10.286 8 18.286 18.286 18.286h109.714c10.286 0 18.286-8 18.286-18.286v-713.143h128c7.429 0 13.714-4 16.571-10.857z" />
<glyph unicode="&#xf176;" glyph-name="long-arrow-up" horiz-adv-x="439" d="M437.143 678.286c-2.857-6.286-9.143-10.857-16.571-10.857h-128v-713.143c0-10.286-8-18.286-18.286-18.286h-109.714c-10.286 0-18.286 8-18.286 18.286v713.143h-128c-7.429 0-13.714 4-16.571 10.857s-1.714 14.286 2.857 20l200 219.429c3.429 3.429 8 5.714 13.143 5.714v0c5.143 0 10.286-2.286 13.714-5.714l202.857-219.429c4.571-5.714 5.714-13.143 2.857-20z" />
<glyph unicode="&#xf177;" glyph-name="long-arrow-left" horiz-adv-x="1061" d="M1024 502.857v-109.714c0-10.286-8-18.286-18.286-18.286h-713.143v-128c0-7.429-4-13.714-10.857-16.571s-14.286-1.714-20 2.857l-219.429 200c-3.429 3.429-5.714 8-5.714 13.143v0c0 5.143 2.286 10.286 5.714 13.714l219.429 202.286c5.714 5.143 13.143 6.286 20 3.429 6.286-2.857 10.857-9.143 10.857-16.571v-128h713.143c10.286 0 18.286-8 18.286-18.286z" />
<glyph unicode="&#xf178;" glyph-name="long-arrow-right" horiz-adv-x="987" d="M987.429 449.714c0-5.143-2.286-10.286-5.714-13.714l-219.429-202.286c-5.714-5.143-13.143-6.286-20-3.429-6.286 2.857-10.857 9.143-10.857 16.571v128h-713.143c-10.286 0-18.286 8-18.286 18.286v109.714c0 10.286 8 18.286 18.286 18.286h713.143v128c0 7.429 4 13.714 10.857 16.571s14.286 1.714 20-2.857l219.429-200c3.429-3.429 5.714-8 5.714-13.143v0z" />
<glyph unicode="&#xf2c0;" glyph-name="user-o" horiz-adv-x="878" d="M686.286 512c80.571-23.429 191.429-102.857 191.429-362.857 0-117.714-87.429-213.143-194.857-213.143h-488c-107.429 0-194.857 95.429-194.857 213.143 0 260 110.857 339.429 191.429 362.857-28.571 45.143-45.143 98.286-45.143 155.429 0 161.143 131.429 292.571 292.571 292.571s292.571-131.429 292.571-292.571c0-57.143-16.571-110.286-45.143-155.429zM438.857 886.857c-121.143 0-219.429-98.286-219.429-219.429s98.286-219.429 219.429-219.429 219.429 98.286 219.429 219.429-98.286 219.429-219.429 219.429zM682.857 9.143c66.857 0 121.714 62.286 121.714 140 0 180-60.571 292.571-173.714 298.286-51.429-45.143-118.286-72.571-192-72.571s-140.571 27.429-192 72.571c-113.143-5.714-173.714-118.286-173.714-298.286 0-77.714 54.857-140 121.714-140h488z" />
</font>
</defs>
</svg>
